Сначала 2 (сезон второй) / D.C. II S.S.: Da Capo II Second Season (Окамото Хидэки) [TV] [13 из 13] [без хардсаба] [RUS(ext), JAP+SUB] [2008, романтика, комедия, драма, мистика, BDRemux] [1080i] 

Цитировать
Сначала 2 (сезон второй) / D.C. II S.S.: Da Capo II Second Season
Год выпуска: 2008
Страна: Япония
Жанр: романтика, комедия, драма, мистика
Тип: TV
Продолжительность: 13 эп. по 24 мин.
Озвучка:
  • Многоголосая от D. A. Studio
Русские субтитры: есть (отдельным файлом, формат .ass)
Перевод:
  • darkdiman, Sadari, Stan WarHammer
Хардсаб: Нет-Режиссер: Окамото Хидэки
Студия: feel.
Описание: Продолжение бесконечной саги об острове Хатсунэдзима с вечно цветущей сакурой. В этом сезоне мы встретим изрядно постаревшего Джуничи, и опять будем переживать вместе с героями. События крутятся вокруг ГГ, по имени Йосиюки. Он окружён целым гаремом кавайных девочек. И все эти девушки... да, да, вы угадали, в него влюблены.
Качество: Blu-Ray Remux
Формат: MKV
Видео кодек: AVC
Аудио кодек: FLAC
Видео: 1920x1080 (16:9) 29,970 fps ~32,2 Mbps 8bit
Аудио:
Jap FLAC, 48000Hz, ~647 Kbps, 2ch
RUS (ext) MP3, 44100Hz, ~128 Kbps, 2ch
Чаптеры присутствуют.

Список эпизодов

01. В глубоком снегу
02. Тайная снежная комната
03. Добрая волшебница
04. Образ счастья
05. Снежное поле отчаяния
06. Тайна сакуры
07. Неизменная мечта
08. Так встретим же вместе зарю...
09. Осколки Весны
10. Окончание сна
11. Остров облетевшей сакуры
12. В глубине воспоминаний
13. Круговорот сезонов

MediaInfo

Общее
Уникальный идентификатор : 130524990752625855600928678233373078753 (0x623232E5BECB53F740DB1A64BE96F4E1)
Полное имя : Z:\Anime Release - working\Da Capo2\Season 2\[anti-raws]D.C. II S.S. Da Capo II Second Season ep.01[BDRemux].mkv
Формат : Matroska
Версия формата : Version 4 / Version 2
Размер файла : 5,57 Гбайт
Продолжительность : 23 м. 42 с.
Режим общего битрейта : Переменный
Общий поток : 33,6 Мбит/сек
Дата кодирования : UTC 2018-05-28 21:28:12
Программа кодирования : mkvmerge v23.0.0 ('The Bride Said No') 64-bit
Библиотека кодирования : libebml v1.3.6 + libmatroska v1.4.9
Видео
Идентификатор : 2
Формат : AVC
Формат/Информация : Advanced Video Codec
Профиль формата : [email protected]
Настройки формата : CABAC / 4 Ref Frames
Параметр CABAC формата : Да
Параметр RefFrames формата : 4 кадра
Идентификатор кодека : V_MPEG4/ISO/AVC
Продолжительность : 23 м. 42 с.
Вид битрейта : Переменный
Битрейт : 33,0 Мбит/сек
Максимальный битрейт : 40,0 Мбит/сек
Ширина : 1920 пикселей
Высота : 1080 пикселей
Соотношение сторон : 16:9
Режим частоты кадров : Постоянный
Частота кадров : 29,970 (30000/1001) кадров/сек
Цветовое пространство : YUV
Субдискретизация насыщенности : 4:2:0
Битовая глубина : 8 бит
Тип развёртки : MBAFF
Метод сохранения типа развёртки : Чередующиеся поля
Порядок развёртки : Верхнее поле первое
Бит/(Пиксели*Кадры) : 0.531
Размер потока : 5,46 Гбайт (98%)
Default : Нет
Forced : Нет
Аудио
Идентификатор : 1
Формат : FLAC
Формат/Информация : Free Lossless Audio Codec
Идентификатор кодека : A_FLAC
Продолжительность : 23 м. 42 с.
Вид битрейта : Переменный
Битрейт : 647 Кбит/сек
Каналы : 2 канала
Расположение каналов : Front: L R
Частота : 48,0 КГц
Частота кадров : 11,719 кадров/сек (4096 SPF)
Битовая глубина : 16 бит
Размер потока : 110 Мбайт (2%)
Библиотека кодирования : libFLAC 1.2.1 (UTC 2007-09-17)
Язык : Japanese
Default : Да
Forced : Нет
Меню
00:00:00.000 : en:00:00:00.000
00:01:14.007 : en:00:01:14.007
00:02:44.031 : en:00:02:44.031
00:11:26.019 : en:00:11:26.019
00:21:55.981 : en:00:21:55.981
00:23:31.010 : en:00:23:31.010

Скриншоты

Вы не можете начинать темы
Вы не можете отвечать на сообщения
Вы не можете редактировать свои сообщения
Вы не можете удалять свои сообщения
Вы не можете голосовать в опросах
Вы не можете прикреплять файлы к сообщениям
Вы можете скачивать файлы